【剧场版】续·终物语

影片简介

导演: 新房昭之
编剧: 新房昭之 / 西尾维新 / 东富耶子
主演: 神谷浩史 / 斋藤千和 / 加藤英美里 / 泽城美雪 / 花泽香菜 / 堀江由衣 / 喜多村英梨 / 井口裕香 / 早见沙织 / 井上麻里奈 / 坂本真绫 / 水桥香织 / 根谷美智子
类型: 剧情 / 动画 / 奇幻
官方网站: https://www.monogatari-series.com/zokuowarimonogatari/
制片国家/地区: 日本
语言: 日语
上映日期: 2018-11-10(日本) / 2019-05-18(6话TV版开播)
片长: 148分钟

制作人员

翻译: 逐风 没有馅的包子 飞鱼 氨基酸 MST Zacksong

校对: 大膜法使花泽かな

时轴: TQYSY

后期: TQYSY DFM

感谢 BraveSail@Mabors 自购

感谢贾总压制

更多

简体中文1080P BDrip

Nyaa Dmhy

截图预览

MediaInfo

General
Complete name                            : Zoku.Owarimonogatari.2018.Complete.BDrip.1080p.Chs.AVC.AAC-Mabors.mp4
Format                                   : MPEG-4
Format profile                           : Base Media
Codec ID                                 : isom (isom/avc1)
File size                                : 5.25 GiB
Duration                                 : 2 h 37 min
Overall bit rate mode                    : Variable
Overall bit rate                         : 4 782 kb/s
Encoded date                             : UTC 2019-04-10 23:29:47
Tagged date                              : UTC 2019-04-10 23:29:47

Video
ID                                       : 1
Format                                   : AVC
Format/Info                              : Advanced Video Codec
Format profile                           : High@L5.1
Format settings                          : CABAC / 9 Ref Frames
Format settings, CABAC                   : Yes
Format settings, Reference frames        : 9 frames
Codec ID                                 : avc1
Codec ID/Info                            : Advanced Video Coding
Duration                                 : 2 h 37 min
Bit rate                                 : 4 499 kb/s
Maximum bit rate                         : 22.8 Mb/s
Width                                    : 1 920 pixels
Height                                   : 1 080 pixels
Display aspect ratio                     : 16:9
Frame rate mode                          : Constant
Frame rate                               : 23.976 (24000/1001) FPS
Color space                              : YUV
Chroma subsampling                       : 4:2:0
Bit depth                                : 8 bits
Scan type                                : Progressive
Bits/(Pixel*Frame)                       : 0.090
Stream size                              : 4.94 GiB (94%)
Title                                    : avs.264#trackID=1@GPAC0.5.2-DEV-rev376-g5eeb74d-master
Encoded date                             : UTC 2019-04-10 23:29:47
Tagged date                              : UTC 2019-04-10 23:30:56
Codec configuration box                  : avcC

Audio
ID                                       : 2
Format                                   : AAC LC
Format/Info                              : Advanced Audio Codec Low Complexity
Codec ID                                 : mp4a-40-2
Duration                                 : 2 h 37 min
Bit rate mode                            : Variable
Bit rate                                 : 279 kb/s
Maximum bit rate                         : 353 kb/s
Channel(s)                               : 2 channels
Channel layout                           : L R
Sampling rate                            : 48.0 kHz
Frame rate                               : 46.875 FPS (1024 SPF)
Compression mode                         : Lossy
Stream size                              : 314 MiB (6%)
Encoded date                             : UTC 2019-04-10 23:23:17
Tagged date                              : UTC 2019-04-10 23:30:56

海报

【剧场版】续·终物语

发布于 2019年10月26日

评论


Scroll Up