【剧场版】幼女战记/谭雅战记

影片简介

导演: 上村泰
编剧: 猪原健太
主演: 悠木碧 / 早见沙织 / 三木真一郎 / 玄田哲章 / 大冢芳忠 / 飞田展男 / 滨野大辉 / 笠间淳 / 林大地 / 小林裕介 / 土师孝也 / 小柳良宽 / 户松遥 / 高冈瓶瓶
类型: 剧情 / 动画 / 战争 / 冒险
官方网站: youjo-senki.jp
制片国家/地区: 日本
语言: 日语
上映日期: 2019-02-08(日本)
片长: 98分钟
又名: 谭雅战记 剧场版 / Saga of Tanya the Evil Movie

制作人员

翻译: 懶懶喔 欲しい 逐风 AI 菲特

校对: AI 逐风

时轴/特效: 茶葉

后期: DFM

感谢贾总压制

更多

简体中文1080P BDrip

Nyaa Dmhy

繁体中文1080P BDrip

Nyaa Dmhy

截图预览

MediaInfo

General
Complete name                            : [Mabors-Sub][Youjo Senki][Movie][1080P][GB][BDrip][AVC AAC YUV420P8].mp4
Format                                   : MPEG-4
Format profile                           : Base Media
Codec ID                                 : isom (isom/avc1)
File size                                : 2.16 GiB
Duration                                 : 1 h 38 min
Overall bit rate mode                    : Variable
Overall bit rate                         : 3 139 kb/s
Encoded date                             : UTC 2019-08-25 03:05:15
Tagged date                              : UTC 2019-08-25 03:05:15

Video
ID                                       : 1
Format                                   : AVC
Format/Info                              : Advanced Video Codec
Format profile                           : High@L5.1
Format settings                          : CABAC / 9 Ref Frames
Format settings, CABAC                   : Yes
Format settings, Reference frames        : 9 frames
Codec ID                                 : avc1
Codec ID/Info                            : Advanced Video Coding
Duration                                 : 1 h 38 min
Bit rate                                 : 2 868 kb/s
Maximum bit rate                         : 19.6 Mb/s
Width                                    : 1 920 pixels
Height                                   : 1 080 pixels
Display aspect ratio                     : 16:9
Frame rate mode                          : Constant
Frame rate                               : 23.976 (24000/1001) FPS
Color space                              : YUV
Chroma subsampling                       : 4:2:0
Bit depth                                : 8 bits
Scan type                                : Progressive
Bits/(Pixel*Frame)                       : 0.058
Stream size                              : 1.97 GiB (91%)
Encoded date                             : UTC 2019-08-25 03:05:15
Tagged date                              : UTC 2019-08-25 03:06:08
Codec configuration box                  : avcC

Audio
ID                                       : 2
Format                                   : AAC LC
Format/Info                              : Advanced Audio Codec Low Complexity
Codec ID                                 : mp4a-40-2
Duration                                 : 1 h 38 min
Bit rate mode                            : Variable
Bit rate                                 : 265 kb/s
Maximum bit rate                         : 364 kb/s
Channel(s)                               : 2 channels
Channel layout                           : L R
Sampling rate                            : 48.0 kHz
Frame rate                               : 46.875 FPS (1024 SPF)
Compression mode                         : Lossy
Stream size                              : 188 MiB (9%)
Encoded date                             : UTC 2019-08-25 03:00:37
Tagged date                              : UTC 2019-08-25 03:06:08

海报

【剧场版】幼女战记/谭雅战记

发布于 2019年10月26日

评论

评论 Macguffin 撤销评论


Scroll Up