【剧场版】紫罗兰永恒花园外传:永远与自动手记人偶

影片简介

导演: 藤田春香
编剧: 晓佳奈 / 吉田玲子 / 浦畑达彦 / 铃木贵昭
主演: 石川由依 / 茅原实里 / 远藤绫 / 寿美菜子 / 子安武人 / 户松遥 / 内山昂辉 / 悠木碧
类型: 剧情 / 动画
官方网站: violet-evergarden.jp/sidestory/
制片国家/地区: 日本
语言: 日语
上映日期: 2020-01-10(中国大陆) / 2019-09-06(日本)
片长: 91分钟
又名: Violet Evergarden: Eternity and the Auto Memories Doll

制作人员

日听:xa 溪卡卡 阿星

翻译:阿星 アダバナ 氨基酸 北野

校对:大膜法使花泽かな 夜忧愁

时轴:TQYSY

后期:DFM

感谢 逐风@幻之字幕组 自购

感谢贾总压制

更多

简中&日语 双语1080P BDrip

Nyaa Dmhy

繁中&日语 双语1080P BDrip

Nyaa Dmhy

如果速度不佳,可尝试添加tracker: https://tk.mabo.ltd/announce

关注

关注交流 新人招募

截图预览

MediaInfo

General
File name                                : [Mabors-Sub][Violet Evergarden Gaiden Eien to Jidou Shuki Ningyou][Movie][1080P][CHS&JPN][BDrip][AVC AAC YUV420P8].mp4
Format                                   : MPEG-4
Format profile                           : Base Media
Codec ID                                 : isom (isom/iso2/avc1/mp41)
File size                                : 1.88 GiB
Duration                                 : 1 h 30 min
Overall bit rate                         : 2 971 kb/s
Writing application                      : Lavf58.28.101

Video
ID                                       : 1
Format                                   : AVC
Format/Info                              : Advanced Video Codec
Format profile                           : High@L5.1
Format settings                          : CABAC / 9 Ref Frames
Format settings, CABAC                   : Yes
Format settings, Reference frames        : 9 frames
Codec ID                                 : avc1
Codec ID/Info                            : Advanced Video Coding
Duration                                 : 1 h 30 min
Bit rate                                 : 2 644 kb/s
Width                                    : 1 920 pixels
Height                                   : 1 080 pixels
Display aspect ratio                     : 16:9
Frame rate mode                          : Variable
Frame rate                               : 23.976 (24000/1001) FPS
Minimum frame rate                       : 23.564 FPS
Maximum frame rate                       : 24.390 FPS
Color space                              : YUV
Chroma subsampling                       : 4:2:0
Bit depth                                : 8 bits
Scan type                                : Progressive
Bits/(Pixel*Frame)                       : 0.053
Stream size                              : 1.67 GiB (89%)
Language                                 : Chinese
Codec configuration box                  : avcC

Audio
ID                                       : 2
Format                                   : AAC LC
Format/Info                              : Advanced Audio Codec Low Complexity
Codec ID                                 : mp4a-40-2
Duration                                 : 1 h 30 min
Bit rate mode                            : Constant
Bit rate                                 : 320 kb/s
Channel(s)                               : 2 channels
Channel layout                           : L R
Sampling rate                            : 48.0 kHz
Frame rate                               : 46.875 FPS (1024 SPF)
Compression mode                         : Lossy
Stream size                              : 207 MiB (11%)
Language                                 : Japanese
Default                                  : Yes
Alternate group                          : 1

海报

【剧场版】紫罗兰永恒花园外传:永远与自动手记人偶

发布于 2020年03月18日

评论

评论 旋风 撤销评论


Scroll Up