【OVA】噬血狂袭 消失的圣枪篇 Strike the Blood: Kieta Seisou Hen

本片含有部分不适合未成年人观看的内容,请确保您已经满18岁再浏览本文。

影片简介

原作: 三雲岳斗 (電撃文庫/KADOKAWA刊)
导演: 山本秀世
脚本: 吉野弘幸
音乐: ASSUMED SOUNDS
人物原案: マニャ子
人物设定: 佐野恵一、古川英樹
系列构成: 吉野弘幸
音响监督: 明田川仁
音响: マジックカプセル
动画制作: CONNECT
发售日: 2020年1月29日

制作人员

翻译: 零 秋雨 没有馅的包子

校对: 逐风

时轴: TQYSY

后期: DFM

感谢白井凛@幻之字幕组自购BD

感谢贾总压制

更多

简体中文1080P BDrip

Nyaa Dmhy

繁体中文1080P BDrip

Nyaa Dmhy

截图预览

MediaInfo

General
File name                            : [Mabors-Sub][Strike the Blood Kieta Seisou Hen][OVA][1080P][GB][BDrip][AVC AAC YUV420P8].mp4
Format                                   : MPEG-4
Format profile                           : Base Media
Codec ID                                 : isom (isom/iso2/avc1/mp41)
File size                                : 483 MiB
Duration                                 : 26 min 45 s
Overall bit rate                         : 2 522 kb/s
Writing application                      : Lavf58.28.101

Video
ID                                       : 1
Format                                   : AVC
Format/Info                              : Advanced Video Codec
Format profile                           : High@L5.1
Format settings                          : CABAC / 9 Ref Frames
Format settings, CABAC                   : Yes
Format settings, Reference frames        : 9 frames
Codec ID                                 : avc1
Codec ID/Info                            : Advanced Video Coding
Duration                                 : 26 min 45 s
Bit rate                                 : 2 250 kb/s
Width                                    : 1 920 pixels
Height                                   : 1 080 pixels
Display aspect ratio                     : 16:9
Frame rate mode                          : Variable
Frame rate                               : 23.976 (24000/1001) FPS
Minimum frame rate                       : 23.564 FPS
Maximum frame rate                       : 24.390 FPS
Color space                              : YUV
Chroma subsampling                       : 4:2:0
Bit depth                                : 8 bits
Scan type                                : Progressive
Bits/(Pixel*Frame)                       : 0.045
Stream size                              : 431 MiB (89%)
Language                                 : Chinese
Codec configuration box                  : avcC

Audio
ID                                       : 2
Format                                   : AAC LC
Format/Info                              : Advanced Audio Codec Low Complexity
Codec ID                                 : mp4a-40-2
Duration                                 : 26 min 45 s
Bit rate mode                            : Constant
Bit rate                                 : 265 kb/s
Channel(s)                               : 2 channels
Channel layout                           : L R
Sampling rate                            : 48.0 kHz
Frame rate                               : 46.875 FPS (1024 SPF)
Compression mode                         : Lossy
Stream size                              : 50.6 MiB (10%)
Language                                 : Japanese
Default                                  : Yes
Alternate group                          : 1

海报

【OVA】噬血狂袭 消失的圣枪篇 Strike the Blood: Kieta Seisou Hen

发布于 2020年01月29日

评论


Scroll Up