【OVA】Re:从零开始的异世界生活 冰结之绊

修正部分翻译错误,新增日语字幕与双语ED

影片简介

导演: 渡边政治
编剧: 横谷昌宏
主演: 高桥李依 / 内山夕实 / 小林裕介 / 水濑祈 / 村川梨衣 / 子安武人
类型: 动画 / 奇幻 / 冒险
官方网站: re-zero-anime.jp/hyoketsu/
制片国家/地区: 日本
语言: 日语
上映日期: 2019-11-08(日本)
片长: 80分钟
又名: Re:从零开始的异世界生活 OVA2

制作人员

翻译: 渊景 灯火 阿星 零 阿喵鱼

校对: 大膜法使花泽かな 逐风 夜忧愁

时轴: TQYSY

后期: DFM

感谢 TQYSY@Mabors 自购

感谢贾总压制

更多

简体中文1080P BDrip

Nyaa Dmhy

繁体中文1080P BDrip

Nyaa Dmhy

如果速度不佳,可尝试添加tracker: https://tk.mabo.ltd/announce

关注

关注交流 新人招募

截图预览

MediaInfo

General
File name                                : [Mabors-Sub][Re Zero kara Hajimeru Isekai Seikatsu Hyouketsu no Kizuna][OVA][1080P][GB][BDrip][AVC AAC YUV420P8].mp4
Format                                   : MPEG-4
Format profile                           : Base Media
Codec ID                                 : isom (isom/iso2/avc1/mp41)
File size                                : 2.48 GiB
Duration                                 : 1 h 16 min
Overall bit rate                         : 4 655 kb/s
Writing application                      : Lavf58.28.101

Video
ID                                       : 1
Format                                   : AVC
Format/Info                              : Advanced Video Codec
Format profile                           : High@L5.1
Format settings                          : CABAC / 9 Ref Frames
Format settings, CABAC                   : Yes
Format settings, Reference frames        : 9 frames
Codec ID                                 : avc1
Codec ID/Info                            : Advanced Video Coding
Duration                                 : 1 h 16 min
Bit rate                                 : 4 355 kb/s
Width                                    : 1 920 pixels
Height                                   : 1 080 pixels
Display aspect ratio                     : 16:9
Frame rate mode                          : Variable
Frame rate                               : 23.976 (24000/1001) FPS
Minimum frame rate                       : 23.564 FPS
Maximum frame rate                       : 24.390 FPS
Color space                              : YUV
Chroma subsampling                       : 4:2:0
Bit depth                                : 8 bits
Scan type                                : Progressive
Bits/(Pixel*Frame)                       : 0.088
Stream size                              : 2.32 GiB (94%)
Language                                 : Chinese
Codec configuration box                  : avcC

Audio
ID                                       : 2
Format                                   : AAC LC
Format/Info                              : Advanced Audio Codec Low Complexity
Codec ID                                 : mp4a-40-2
Duration                                 : 1 h 16 min
Bit rate mode                            : Constant
Bit rate                                 : 288 kb/s
Channel(s)                               : 2 channels
Channel layout                           : L R
Sampling rate                            : 48.0 kHz
Frame rate                               : 46.875 FPS (1024 SPF)
Compression mode                         : Lossy
Stream size                              : 160 MiB (6%)
Language                                 : Japanese
Default                                  : Yes
Alternate group                          : 1

海报

【OVA】Re:从零开始的异世界生活 冰结之绊

发布于 2020年04月01日

评论


  1. 坠落流星雨

    字幕组老哥,你给的动漫花园链接,那一个动漫花园好像是假的,域名后缀ltd,真的域名后缀是org,

    编辑 回复
  2. 啊啊啊啊

    请问字幕组有做从零开始的异世界生活的第一部吗?如果有,可不可以给个链接。很喜欢你们把女主翻译成艾米莉亚

    编辑 回复
Scroll Up