【OVA】Re:从零开始的异世界生活 ~Memory Snow~

影片简介

导演: 渡边政治
编剧: 横谷昌宏
主演: 小林裕介 / 高桥李依 / 内山夕实 / 水濑祈 / 村川梨衣 / 新井里美 / 子安武人
类型: 动画 / 奇幻
官方网站: http://re-zero-anime.jp/
制片国家/地区: 日本
语言: 日语
上映日期: 2018-10-06(日本)
片长: 60分钟
又名: Re:从零开始的异世界生活 OVA

制作人员

翻译: 逐风 懒懒喔 MST

校对: 大膜法使花泽かな

时轴&后期: TQYSY

感谢 TQYSY@Mabors 自购

感谢贾总压制

更多

简体中文1080P BDrip

Nyaa Dmhy

截图预览

MediaInfo

General
Complete name                            : Re.Zero.kara.Hajimeru.Isekai.Seikatsu.Memory.Snow.2018.OVA.BDrip.1080p.CHS.AVC.AAC-Mabors.mp4
Format                                   : MPEG-4
Format profile                           : Base Media
Codec ID                                 : isom (isom/avc1)
File size                                : 1.64 GiB
Duration                                 : 1 h 0 min
Overall bit rate mode                    : Variable
Overall bit rate                         : 3 900 kb/s
Encoded date                             : UTC 2019-06-06 14:46:26
Tagged date                              : UTC 2019-06-06 14:46:26

Video
ID                                       : 1
Format                                   : AVC
Format/Info                              : Advanced Video Codec
Format profile                           : High@L5.1
Format settings                          : CABAC / 9 Ref Frames
Format settings, CABAC                   : Yes
Format settings, Reference frames        : 9 frames
Codec ID                                 : avc1
Codec ID/Info                            : Advanced Video Coding
Duration                                 : 1 h 0 min
Bit rate                                 : 3 616 kb/s
Maximum bit rate                         : 20.2 Mb/s
Width                                    : 1 920 pixels
Height                                   : 1 080 pixels
Display aspect ratio                     : 16:9
Frame rate mode                          : Constant
Frame rate                               : 23.976 (24000/1001) FPS
Color space                              : YUV
Chroma subsampling                       : 4:2:0
Bit depth                                : 8 bits
Scan type                                : Progressive
Bits/(Pixel*Frame)                       : 0.073
Stream size                              : 1.52 GiB (93%)
Title                                    : avs.264#trackID=1@GPAC0.5.2-DEV-rev376-g5eeb74d-master
Encoded date                             : UTC 2019-06-06 14:46:26
Tagged date                              : UTC 2019-06-06 14:47:09
Codec configuration box                  : avcC

Audio
ID                                       : 2
Format                                   : AAC LC
Format/Info                              : Advanced Audio Codec Low Complexity
Codec ID                                 : mp4a-40-2
Duration                                 : 1 h 0 min
Bit rate mode                            : Variable
Bit rate                                 : 281 kb/s
Maximum bit rate                         : 357 kb/s
Channel(s)                               : 2 channels
Channel layout                           : L R
Sampling rate                            : 48.0 kHz
Frame rate                               : 46.875 FPS (1024 SPF)
Compression mode                         : Lossy
Stream size                              : 121 MiB (7%)
Encoded date                             : UTC 2019-06-06 14:42:35
Tagged date                              : UTC 2019-06-06 14:47:09

海报

【OVA】Re:从零开始的异世界生活 ~Memory Snow~

发布于 2019年10月26日

评论


Scroll Up