【剧场版】普罗米亚 PROMARE

修正部分文本错误与缺失
补充部分歌曲双语/三语字幕

修正部分文本错误与缺失
补充部分歌曲双语/三语字幕

影片简介

导演: 今石洋之
编剧: 中岛一树
主演: 松山研一 / 早乙女太一 / 堺雅人 / 佐仓绫音 / 吉野裕行 / 稻田彻 / 新谷真弓 / 小山力也 / 小清水亚美 / 楠大典 / 桧山修之 / 小西克幸
类型: 剧情 / 科幻 / 动画
官方网站: promare-movie.com
制片国家/地区: 日本
语言: 日语
上映日期: 2019-05-24(日本)
片长: 111分钟
又名: PROMARE / 普羅米亞的火燄(港)

制作人员

翻译:零 大军 逐风 Gin

校对:Gin

时轴:TQYSY

后期:DFM

感谢 白井凛@幻之字幕组 自购

感谢贾总压制

更多

由于收到版权方版权警告,本站配合要求撤下下载站链接引导。

关注

关注交流 新人招募

截图预览

MediaInfo

General
File name                            : [Mabors-Sub][PROMARE][Movie][1080P][GB][BDrip][AVC AAC YUV420P8].mp4
Format                                   : MPEG-4
Format profile                           : Base Media
Codec ID                                 : isom (isom/iso2/avc1/mp41)
File size                                : 3.36 GiB
Duration                                 : 1 h 51 min
Overall bit rate                         : 4 330 kb/s
Writing application                      : Lavf58.28.101

Video
ID                                       : 1
Format                                   : AVC
Format/Info                              : Advanced Video Codec
Format profile                           : High@L5.1
Format settings                          : CABAC / 9 Ref Frames
Format settings, CABAC                   : Yes
Format settings, Reference frames        : 9 frames
Codec ID                                 : avc1
Codec ID/Info                            : Advanced Video Coding
Duration                                 : 1 h 51 min
Bit rate                                 : 4 034 kb/s
Width                                    : 1 920 pixels
Height                                   : 1 080 pixels
Display aspect ratio                     : 16:9
Frame rate mode                          : Variable
Frame rate                               : 23.976 (24000/1001) FPS
Minimum frame rate                       : 23.564 FPS
Maximum frame rate                       : 24.390 FPS
Color space                              : YUV
Chroma subsampling                       : 4:2:0
Bit depth                                : 8 bits
Scan type                                : Progressive
Bits/(Pixel*Frame)                       : 0.081
Stream size                              : 3.13 GiB (93%)
Language                                 : Chinese
Codec configuration box                  : avcC

Audio
ID                                       : 2
Format                                   : AAC LC
Format/Info                              : Advanced Audio Codec Low Complexity
Codec ID                                 : mp4a-40-2
Duration                                 : 1 h 51 min
Bit rate mode                            : Constant
Bit rate                                 : 288 kb/s
Channel(s)                               : 2 channels
Channel layout                           : L R
Sampling rate                            : 48.0 kHz
Frame rate                               : 46.875 FPS (1024 SPF)
Compression mode                         : Lossy
Stream size                              : 229 MiB (7%)
Language                                 : Japanese
Default                                  : Yes
Alternate group                          : 1

海报

【剧场版】普罗米亚 PROMARE

发布于 2020年02月05日

评论


  1. 北京网络版权监测中心

    《普罗米亚》是版权方重点保护的版权作品,请勿擅自传播盗版。根据《著作权法》《信息网络传播条例》等相关规定,用户未经许可传播著作权人作品的行为将承担相应的法律责任,请立即停止传播盗版资源的违法行为。

    编辑 回复
    1. admin

      回复 @北京网络版权监测中心: 你好,感谢贵方的通知,我们非常高兴能与贵方配合。在删除本文前,请问是否可以提供权益人/版权方为贵方提供的版权声明?请按照提示与我们的管理员取得联系 。在确认后,本站会立即删除《普罗米亚》相关的全部内容。

      编辑 回复
  2. LK

    能不能分享下字幕,片源是硬字幕无法提取,蓝光REMUX版用不了……..蓝光磁链magnet:?xt=urn:btih:AEAA25963C2342B60EF57089FC8D499D8CC97E0D

    编辑 回复
      1. LK

        回复 @ASPEN: 是的,这连接是公网找的。PT好久不玩了,这不最近困在家里面实在无聊找点片子看看,这动漫评分挺高的。原来是烧友家里有投影音响功放一般都是看原盘,无所谓了没字幕就拿你们那个3个G资源和这REMUX音轨混一下凑合看吧。

        编辑 回复
  3. season

    特别想了解一下电影中有关《觉醒》这首歌的歌词翻译,花恋蝶期蝶恋花……(可能记得不是特别清楚)是怎么翻译的呀?
    感觉那一段翻译的特别有文采和感觉!

    编辑 回复
  4. Nana Tasch

    Hiya, I’m really glad I have found this info. Today bloggers publish just about gossip and web stuff and this is really annoying. A good web site with exciting content, that’s what I need. Thank you for making this site, and I will be visiting again. Do you do newsletters by email?

    编辑 回复
  5. Rodrigo Mooers

    It’s a shame you don’t have a donate button! I’d certainly donate to this outstanding blog! I guess for now i’ll settle for book-marking and adding your RSS feed to my Google account. I look forward to fresh updates and will share this site with my Facebook group. Chat soon!

    编辑 回复
Scroll Up