【剧场版】Love Live! Sunshine!! Over The Rainbow

影片简介

导演: 酒井和男
编剧: 花田十辉
主演: 伊波杏树 / 齐藤朱夏 / 逢田梨香子 / 高槻加奈子 / 降幡爱 / 小林爱香 / 小宫有纱 / 诹访奈奈香 / 铃木爱奈
类型: 动作 / 动画 / 音乐 / 歌舞
官方网站: http://www.lovelive-anime.jp/
制片国家/地区: 日本
语言: 日语
上映日期: 2019-01-04(日本)
又名: LoveLive!Sunshine!! 剧场版 The School Idol Movie Over the Rainbow

制作人员

翻译: 大膜法使花泽かな 喵呜 立雪神伤 菲特 逐风

校对: 立雪神伤

时轴&后期: TQYSY

感谢 白井凛@Mabors 自购

感谢贾总压制

更多

简体中文1080P BDrip

Nyaa Dmhy

繁体中文1080P BDrip

Nyaa Dmhy

截图预览

MediaInfo

General
Complete name                            : [Mabors-Sub][Love Live! Sunshine!! Over The Rainbow][Movie][1080P][V3][GB][BDrip][AVC AAC YUV420P8].mp4
Format                                   : MPEG-4
Format profile                           : Base Media
Codec ID                                 : isom (isom/avc1)
File size                                : 4.27 GiB
Duration                                 : 1 h 40 min
Overall bit rate mode                    : Variable
Overall bit rate                         : 6 079 kb/s
Encoded date                             : UTC 2019-07-31 17:13:18
Tagged date                              : UTC 2019-07-31 17:13:18

Video
ID                                       : 1
Format                                   : AVC
Format/Info                              : Advanced Video Codec
Format profile                           : High@L5.1
Format settings                          : CABAC / 9 Ref Frames
Format settings, CABAC                   : Yes
Format settings, Reference frames        : 9 frames
Codec ID                                 : avc1
Codec ID/Info                            : Advanced Video Coding
Duration                                 : 1 h 40 min
Bit rate                                 : 5 911 kb/s
Maximum bit rate                         : 30.0 Mb/s
Width                                    : 1 920 pixels
Height                                   : 1 080 pixels
Display aspect ratio                     : 16:9
Frame rate mode                          : Constant
Frame rate                               : 23.976 (24000/1001) FPS
Color space                              : YUV
Chroma subsampling                       : 4:2:0
Bit depth                                : 8 bits
Scan type                                : Progressive
Bits/(Pixel*Frame)                       : 0.119
Stream size                              : 4.15 GiB (97%)
Encoded date                             : UTC 2019-07-31 17:13:18
Tagged date                              : UTC 2019-07-31 17:15:06
Codec configuration box                  : avcC

Audio
ID                                       : 2
Format                                   : AAC LC
Format/Info                              : Advanced Audio Codec Low Complexity
Codec ID                                 : mp4a-40-2
Duration                                 : 1 h 40 min
Bit rate mode                            : Variable
Bit rate                                 : 164 kb/s
Maximum bit rate                         : 209 kb/s
Channel(s)                               : 2 channels
Channel layout                           : L R
Sampling rate                            : 48.0 kHz
Frame rate                               : 46.875 FPS (1024 SPF)
Compression mode                         : Lossy
Stream size                              : 118 MiB (3%)
Encoded date                             : UTC 2019-07-25 16:49:13
Tagged date                              : UTC 2019-07-31 17:15:06

海报

【剧场版】Love Live! Sunshine!! Over The Rainbow

发布于 2019年10月26日

评论


Scroll Up