【剧场版】为美好的世界献上祝福!红传说

修正部分翻译错误,新增日语字幕与双语ED

影片简介

导演: 金崎贵臣
编剧: 上江洲诚
主演: 福岛润 / 雨宫天 / 高桥李依 / 茅野爱衣 / 堀江由衣 / 丰崎爱生
类型: 喜剧 / 动画
官方网站: http://konosuba.com/#read_movie
制片国家/地区: 日本
语言: 日语
上映日期: 2019-08-30(日本)
片长: 90分钟

制作人员

翻译: 阿星 秋雨
校对: 逐风 夜忧愁 大膜法使花泽かな
时轴: TQYSY
后期: DFM

更多

简中&日语 双语1080P BDrip

Nyaa Dmhy

繁中&日语 双语1080P BDrip

Nyaa Dmhy

如果速度不佳,可尝试添加tracker: https://tk.mabo.ltd/announce

关注

关注交流 新人招募

截图预览

MediaInfo

General
File name                                : [Mabors-Sub][Kono Subarashii Sekai ni Shukufuku o! Kurenai Densetsu][Movie][1080P][CHS&JPN][BDrip][AVC AAC YUV420P8].mp4
Format                                   : MPEG-4
Format profile                           : Base Media
Codec ID                                 : isom (isom/iso2/avc1/mp41)
File size                                : 3.04 GiB
Duration                                 : 1 h 29 min
Overall bit rate                         : 4 841 kb/s
Writing application                      : Lavf58.28.101

Video
ID                                       : 1
Format                                   : AVC
Format/Info                              : Advanced Video Codec
Format profile                           : High@L5.1
Format settings                          : CABAC / 9 Ref Frames
Format settings, CABAC                   : Yes
Format settings, Reference frames        : 9 frames
Codec ID                                 : avc1
Codec ID/Info                            : Advanced Video Coding
Duration                                 : 1 h 29 min
Bit rate                                 : 4 548 kb/s
Width                                    : 1 920 pixels
Height                                   : 1 080 pixels
Display aspect ratio                     : 16:9
Frame rate mode                          : Variable
Frame rate                               : 23.976 (24000/1001) FPS
Minimum frame rate                       : 23.564 FPS
Maximum frame rate                       : 24.390 FPS
Color space                              : YUV
Chroma subsampling                       : 4:2:0
Bit depth                                : 8 bits
Scan type                                : Progressive
Bits/(Pixel*Frame)                       : 0.091
Stream size                              : 2.86 GiB (94%)
Language                                 : Chinese
Codec configuration box                  : avcC

Audio
ID                                       : 2
Format                                   : AAC LC
Format/Info                              : Advanced Audio Codec Low Complexity
Codec ID                                 : mp4a-40-2
Duration                                 : 1 h 29 min
Bit rate mode                            : Constant
Bit rate                                 : 288 kb/s
Channel(s)                               : 2 channels
Channel layout                           : L R
Sampling rate                            : 48.0 kHz
Frame rate                               : 46.875 FPS (1024 SPF)
Compression mode                         : Lossy
Stream size                              : 183 MiB (6%)
Language                                 : Japanese
Default                                  : Yes
Alternate group                          : 1

海报

【剧场版】为美好的世界献上祝福!红传说

发布于 2020年03月25日

评论


  1. 营业员

    别用迅雷,迅雷已经被其他种子软件拉黑了,用比特彗星或者 qBittorrent。
    P2P的互联网精神需要大家共同维护,下载完毕之后请继续保持开启状态,可以帮助其他人更快的下载文件,而且因为大家一起努力,所以每个人出的力很少。

    编辑 回复
Scroll Up