【剧场版】甲铁城的卡巴内瑞 海门决战

影片简介

导演: 荒木哲郎
编剧: 大河内一楼
主演: 畠中祐 / 千本木彩花 / 内田真礼 / 增田俊树 / 冲佳苗 / 伊濑茉莉也 / 逢坂良太 / 佐藤健辅 / 麦克斯韦·帕瓦尔 / 三木真一郎
类型: 剧情 / 动作 / 动画
官方网站: http://kabaneri.com/
制片国家/地区: 日本
语言: 日语
上映日期: 2019-05-10(日本)
片长: 82分钟
又名: 甲铁城的卡巴内里~海门决战~ / 甲铁城的卡巴内利~海门决战~ / A Samurai’s Promise / Kabaneri Of The Iron Fortress: The Battle Of Unato

制作人员

翻译: 没有馅的包子 DD 菲特

校对: 小倉朝日、逐风

时轴: TQYSY@无名好萌啊

后期: TQYSY@无名好萌啊 DFM

歌词翻译:比木小森 逐风

歌词校对: 大膜法使花泽かな

感谢贾总压制

ED

更多

简体中文1080P WebRip

Nyaa Dmhy

截图预览

MediaInfo

General
Complete name                            : Kabaneri.of.the.Iron.Fortress.Unato.Decisive.Battle.2019.MOVIE.WebRip.1080p.CHS.V2.AVC.AAC-Mabors.mp4
Format                                   : MPEG-4
Format profile                           : Base Media
Codec ID                                 : isom (isom/avc1)
File size                                : 1.85 GiB
Duration                                 : 1 h 14 min
Overall bit rate mode                    : Variable
Overall bit rate                         : 3 566 kb/s
Encoded date                             : UTC 2019-05-15 08:09:43
Tagged date                              : UTC 2019-05-15 08:09:43

Video
ID                                       : 1
Format                                   : AVC
Format/Info                              : Advanced Video Codec
Format profile                           : High@L5.1
Format settings                          : CABAC / 9 Ref Frames
Format settings, CABAC                   : Yes
Format settings, Reference frames        : 9 frames
Codec ID                                 : avc1
Codec ID/Info                            : Advanced Video Coding
Duration                                 : 1 h 14 min
Bit rate                                 : 3 357 kb/s
Maximum bit rate                         : 21.5 Mb/s
Width                                    : 1 920 pixels
Height                                   : 1 080 pixels
Display aspect ratio                     : 16:9
Frame rate mode                          : Constant
Frame rate                               : 23.976 (24000/1001) FPS
Color space                              : YUV
Chroma subsampling                       : 4:2:0
Bit depth                                : 8 bits
Scan type                                : Progressive
Bits/(Pixel*Frame)                       : 0.068
Stream size                              : 1.74 GiB (94%)
Title                                    : of.the.Iron.Fortress.Unato.Decisive.Battle.2019.MOVIE.avs.264#trackID=1@GPAC0.5.2-DEV-rev376-g5eeb74d-master
Encoded date                             : UTC 2019-05-15 08:09:43
Tagged date                              : UTC 2019-05-15 08:10:08
Codec configuration box                  : avcC

Audio
ID                                       : 2
Format                                   : AAC LC
Format/Info                              : Advanced Audio Codec Low Complexity
Codec ID                                 : mp4a-40-2
Duration                                 : 1 h 14 min
Bit rate mode                            : Variable
Bit rate                                 : 206 kb/s
Maximum bit rate                         : 252 kb/s
Channel(s)                               : 2 channels
Channel layout                           : L R
Sampling rate                            : 48.0 kHz
Frame rate                               : 46.875 FPS (1024 SPF)
Compression mode                         : Lossy
Stream size                              : 109 MiB (6%)
Encoded date                             : UTC 2019-05-15 08:07:23
Tagged date                              : UTC 2019-05-15 08:10:08

海报

【剧场版】甲铁城的卡巴内瑞 海门决战

发布于 2019年10月26日

评论


Scroll Up