【剧场版】你好世界 HELLO WORLD

修正部分翻译错误,新增日语字幕与双语歌词

影片简介

导演: 伊藤智彦
编剧: 野崎窗
主演: 北村匠海 / 松坂桃李 / 滨边美波 / 子安武人 / 寿美菜子 / 福原遥 / 钉宫理惠
类型: 动画
官方网站: https://hello-world-movie.com/
制片国家/地区: 日本
语言: 日语
上映日期: 2019-09-20(日本)
片长: 97分钟
又名: ハロー・ワールド

制作人员

翻译: 秋雨 灯火 ジャユ 没有馅的包子 零蛋 阿星
校对: 逐风 夜忧愁 大膜法使花泽かな
时轴: 红尘
后期: WUN
感谢 咸鱼往肩扛@幻之字幕组 自购自抓
感谢贾总压制

更多

应版权方霍尔果斯路画影视要求,本站撤下所有与动画电影《你好世界》相关的下载方式引导。

关注

关注交流 新人招募

截图预览

MediaInfo

General
File name                                : [Mabors-Sub][HELLO WORLD][Movie][1080P][CHS&JPN][BDrip][AVC AAC YUV420P8].mp4
Format                                   : MPEG-4
Format profile                           : Base Media
Codec ID                                 : isom (isom/iso2/avc1/mp41)
File size                                : 3.55 GiB
Duration                                 : 1 h 37 min
Overall bit rate                         : 5 199 kb/s
Writing application                      : Lavf56.40.101

Video
ID                                       : 1
Format                                   : AVC
Format/Info                              : Advanced Video Codec
Format profile                           : High@L5.1
Format settings                          : CABAC / 9 Ref Frames
Format settings, CABAC                   : Yes
Format settings, Reference frames        : 9 frames
Codec ID                                 : avc1
Codec ID/Info                            : Advanced Video Coding
Duration                                 : 1 h 37 min
Bit rate                                 : 4 880 kb/s
Width                                    : 1 920 pixels
Height                                   : 1 080 pixels
Display aspect ratio                     : 16:9
Frame rate mode                          : Variable
Frame rate                               : 23.976 (24000/1001) FPS
Minimum frame rate                       : 23.564 FPS
Maximum frame rate                       : 24.390 FPS
Color space                              : YUV
Chroma subsampling                       : 4:2:0
Bit depth                                : 8 bits
Scan type                                : Progressive
Bits/(Pixel*Frame)                       : 0.098
Stream size                              : 3.33 GiB (94%)
Language                                 : Chinese
Codec configuration box                  : avcC

Audio
ID                                       : 2
Format                                   : AAC LC
Format/Info                              : Advanced Audio Codec Low Complexity
Codec ID                                 : mp4a-40-2
Duration                                 : 1 h 37 min
Bit rate mode                            : Constant
Bit rate                                 : 312 kb/s
Channel(s)                               : 2 channels
Channel layout                           : L R
Sampling rate                            : 48.0 kHz
Frame rate                               : 46.875 FPS (1024 SPF)
Compression mode                         : Lossy
Stream size                              : 218 MiB (6%)
Language                                 : Japanese
Default                                  : Yes
Alternate group                          : 1

海报

【剧场版】你好世界 HELLO WORLD

发布于 2020年04月08日

评论


  1. Misakizlx

    看完了,很好看!!!幻之字幕组,永远滴神!!!!!!!!!!!!!!!!!!!!!!!!!!!!!!!!!!!!!!!!!!!!!!!!!!!!!!!!!!!!!!!!!!!!!!!!!!!!!!!!nb,期待很久终于出了,国内也要引进到时候也可以再体验一次哼哼~阿萨啊啊啊啊啊啊哈哈哈哈

    编辑 回复
  2. labedroomToobE

    Bedroom furniture sets
    Come in outstanding store in Jefferson Park production for office and home use and cafe! presents over 12000 appointment furniture and goods for a country house and apartments or restaurant. Natural rattan , are used for the purposes of production our branded products , possesses strength and wear resistance, wonderful external data. All furniture processed special compounds, due to which their surface does not absorb water, stable to extremes ambient temperature air and exposure of the sun. Vya our furniture excellent retains its functions even in restaurant in open spaces . In the presented online catalog you offered photos furniture for dining room, hall, bedroom, children’s room , as well as intended for organization of storage area – dressers and cabinets, cabinets and others . In our store in Fairfax you can buy everything for any your home not expensive . We invite client come to store , holding in Westwood what cares about its shopper.

    编辑 回复
Scroll Up