【OVA】请问您今天要来点兔子吗??~Sing for You~

影片简介

导演: 桥本裕之
编剧: 笔安一幸
主演: 佐仓绫音 / 水濑祈 / 种田梨沙 / 佐藤聪美 / 内田真礼 / 德井青空 / 村川梨衣 / 早见沙织 / 清川元梦 / 速水奖 / 水树奈奈
类型: 动画
官方网站: gochiusa.com/ova2/
制片国家/地区: 日本
语言: 日语
上映日期: 2019-09-26(日本)
又名: 请问您今天要来点兔子吗?? OVA

制作人员

翻译: 懶懶喔 阿星 みさきふみ

校对: AI

时轴: TQYSY

后期: TQYSY DFM

更多

新增双语歌词与特效

简体中文1080P BDrip

Nyaa Dmhy

繁体中文1080P BDrip

Nyaa Dmhy

截图预览

MediaInfo

General
Complete name                            : [Mabors-Sub][Gochuumon wa Usagi desu ka Sing for You][OVA][1080P][GB][BDrip][AVC AAC YUV420P8].mp4
Format                                   : MPEG-4
Format profile                           : Base Media
Codec ID                                 : isom (isom/iso2/avc1/mp41)
File size                                : 446 MiB
Duration                                 : 25 min 23 s
Overall bit rate                         : 2 458 kb/s
Writing application                      : Lavf58.28.101

Video
ID                                       : 1
Format                                   : AVC
Format/Info                              : Advanced Video Codec
Format profile                           : High@L5
Format settings                          : CABAC / 6 Ref Frames
Format settings, CABAC                   : Yes
Format settings, Reference frames        : 6 frames
Codec ID                                 : avc1
Codec ID/Info                            : Advanced Video Coding
Duration                                 : 25 min 23 s
Bit rate                                 : 2 121 kb/s
Width                                    : 1 920 pixels
Height                                   : 1 080 pixels
Display aspect ratio                     : 16:9
Frame rate mode                          : Variable
Frame rate                               : 23.976 (24000/1001) FPS
Minimum frame rate                       : 23.564 FPS
Maximum frame rate                       : 24.390 FPS
Color space                              : YUV
Chroma subsampling                       : 4:2:0
Bit depth                                : 8 bits
Scan type                                : Progressive
Bits/(Pixel*Frame)                       : 0.043
Stream size                              : 385 MiB (86%)
Writing library                          : x264 core 157 r2935 545de2f
Language                                 : Chinese
Codec configuration box                  : avcC

Audio
ID                                       : 2
Format                                   : AAC LC
Format/Info                              : Advanced Audio Codec Low Complexity
Codec ID                                 : mp4a-40-2
Duration                                 : 25 min 23 s
Bit rate mode                            : Constant
Bit rate                                 : 329 kb/s
Channel(s)                               : 2 channels
Channel layout                           : L R
Sampling rate                            : 48.0 kHz
Frame rate                               : 46.875 FPS (1024 SPF)
Compression mode                         : Lossy
Stream size                              : 59.8 MiB (13%)
Language                                 : Japanese
Default                                  : Yes
Alternate group                          : 1

海报

【OVA】请问您今天要来点兔子吗??~Sing for You~

发布于 2019年10月26日

评论

评论 n6p 撤销评论


Scroll Up