【剧场版】命运之夜——天之杯II :迷失之蝶

影片简介

导演: 须藤友德
编剧: 奈须蘑菇 / 桧山彬
主演: 杉山纪彰 / 下屋则子 / 神谷浩史 / 川澄绫子 / 植田佳奈 / 门胁舞以 / 伊藤美纪 / 中田让治 / 津嘉山正种 / 关智一 / 浅川悠 / 诹访部顺一 / 稻田彻
类型: 剧情 / 动画 / 奇幻
官方网站: www.fate-sn.com
制片国家/地区: 日本
语言: 日语
上映日期: 2019-07-12(中国大陆) / 2019-01-12(日本)
片长: 117分钟 / 113分钟(中国大陆)
又名: 命运之夜——天之杯:迷失之蝶 / 命运之夜——天之杯2:迷途之蝶 / 命运之夜——天之杯2:失去之蝶 / 命运之夜——天之杯2:迷失之蝶 / 命运之夜 剧场版 天之杯2

制作人员

翻译: 逐风 Gin 菲特 氨基酸 arashi

校对: Gin 大膜法使花泽かな

时轴&后期: TQYSY

感谢 白井凛@Mabors 自购

感谢贾总压制

更多

简体中文1080P BDrip

Nyaa Dmhy

繁体中文1080P BDrip

Nyaa Dmhy

截图预览

MediaInfo

General
Complete name                            : [Mabors-Sub][Fate stay night Heaven's Feel II.lost butterfly][Movie][1080P][GB][BDrip][AVC AAC YUV420P8].mp4
Format                                   : MPEG-4
Format profile                           : Base Media
Codec ID                                 : isom (isom/avc1)
File size                                : 3.08 GiB
Duration                                 : 1 h 57 min
Overall bit rate mode                    : Variable
Overall bit rate                         : 3 760 kb/s
Encoded date                             : UTC 2019-08-23 08:07:07
Tagged date                              : UTC 2019-08-23 08:07:07

Video
ID                                       : 1
Format                                   : AVC
Format/Info                              : Advanced Video Codec
Format profile                           : High@L5.1
Format settings                          : CABAC / 9 Ref Frames
Format settings, CABAC                   : Yes
Format settings, Reference frames        : 9 frames
Codec ID                                 : avc1
Codec ID/Info                            : Advanced Video Coding
Duration                                 : 1 h 57 min
Bit rate                                 : 3 448 kb/s
Maximum bit rate                         : 19.3 Mb/s
Width                                    : 1 920 pixels
Height                                   : 1 080 pixels
Display aspect ratio                     : 16:9
Frame rate mode                          : Constant
Frame rate                               : 23.976 (24000/1001) FPS
Color space                              : YUV
Chroma subsampling                       : 4:2:0
Bit depth                                : 8 bits
Scan type                                : Progressive
Bits/(Pixel*Frame)                       : 0.069
Stream size                              : 2.82 GiB (92%)
Title                                    : avs.264#trackID=1@GPAC0.5.2-DEV-rev376-g5eeb74d-master
Encoded date                             : UTC 2019-08-23 08:07:07
Tagged date                              : UTC 2019-08-23 08:08:22
Codec configuration box                  : avcC

Audio
ID                                       : 2
Format                                   : AAC LC
Format/Info                              : Advanced Audio Codec Low Complexity
Codec ID                                 : mp4a-40-2
Duration                                 : 1 h 57 min
Bit rate mode                            : Variable
Bit rate                                 : 308 kb/s
Maximum bit rate                         : 379 kb/s
Channel(s)                               : 2 channels
Channel layout                           : L R
Sampling rate                            : 48.0 kHz
Frame rate                               : 46.875 FPS (1024 SPF)
Compression mode                         : Lossy
Stream size                              : 258 MiB (8%)
Encoded date                             : UTC 2019-08-22 17:01:57
Tagged date                              : UTC 2019-08-23 08:08:22

海报

【剧场版】命运之夜——天之杯II :迷失之蝶

发布于 2019年10月26日

评论

评论 两仪式 撤销评论


Scroll Up