【剧场版】吹响!上低音号~誓言的终章~ Hibike! Euphonium: Chikai no Finale

影片简介

导演: 石原立也
编剧: 花田十辉 / 武田绫乃
主演: 黑泽朋世 / 朝井彩加 / 丰田萌绘 / 安济知佳 / 石谷春贵 / 藤村鼓乃美 / 山冈百合 / 津田健次郎 / 小堀幸 / 雨宫天 / 七濑彩夏 / 久野美咲 / 土屋神叶 / 寿美菜子 / 樱井孝宏
类型: 动画
官方网站: anime-eupho.com
制片国家/地区: 日本
语言: 日语
上映日期: 2019-04-19(日本)
片长: 102分钟
又名: 劇場版 響け!ユーフォニアム 完全新作 2年生になった久美子たち

制作人员

日听:彼方の歌 抛弃的孩子 夜忧愁

翻译&校对:逐风

时轴:TQYSY

后期:DFM

感谢贾总压制

更多

简中&日语 双语1080P BDrip

Nyaa Dmhy

繁中&日语 双语1080P BDrip

Nyaa Dmhy

如果速度不佳,可尝试添加tracker: https://tk.mabo.ltd/announce

关注

关注交流 新人招募

截图预览

MediaInfo

General
File name                            : [Mabors-Sub][Hibike! Euphonium Chikai no Finale][Movie][1080P][CHS&JPN][BDrip][AVC AAC YUV420P8].mp4
Format                                   : MPEG-4
Format profile                           : Base Media
Codec ID                                 : isom (isom/iso2/avc1/mp41)
File size                                : 2.61 GiB
Duration                                 : 1 h 40 min
Overall bit rate                         : 3 724 kb/s
Writing application                      : Lavf58.28.101

Video
ID                                       : 1
Format                                   : AVC
Format/Info                              : Advanced Video Codec
Format profile                           : High@L5.1
Format settings                          : CABAC / 9 Ref Frames
Format settings, CABAC                   : Yes
Format settings, Reference frames        : 9 frames
Codec ID                                 : avc1
Codec ID/Info                            : Advanced Video Coding
Duration                                 : 1 h 40 min
Bit rate                                 : 3 435 kb/s
Width                                    : 1 920 pixels
Height                                   : 1 080 pixels
Display aspect ratio                     : 16:9
Frame rate mode                          : Variable
Frame rate                               : 23.976 (24000/1001) FPS
Minimum frame rate                       : 23.564 FPS
Maximum frame rate                       : 24.390 FPS
Color space                              : YUV
Chroma subsampling                       : 4:2:0
Bit depth                                : 8 bits
Scan type                                : Progressive
Bits/(Pixel*Frame)                       : 0.069
Stream size                              : 2.41 GiB (92%)
Language                                 : Chinese
Codec configuration box                  : avcC

Audio
ID                                       : 2
Format                                   : AAC LC
Format/Info                              : Advanced Audio Codec Low Complexity
Codec ID                                 : mp4a-40-2
Duration                                 : 1 h 40 min
Bit rate mode                            : Constant
Bit rate                                 : 282 kb/s
Channel(s)                               : 2 channels
Channel layout                           : L R
Sampling rate                            : 48.0 kHz
Frame rate                               : 46.875 FPS (1024 SPF)
Compression mode                         : Lossy
Stream size                              : 202 MiB (8%)
Language                                 : Japanese
Default                                  : Yes
Alternate group                          : 1

海报

【剧场版】吹响!上低音号~誓言的终章~ Hibike! Euphonium: Chikai no Finale

发布于 2020年01月12日

评论


  1. hjxmcyyy

    感谢字幕组资源与翻译,但其中还是有好几处翻译成谐音 一处漏翻 特效字幕位置不对移出屏幕的(不记得具体在哪了) 希望放出生肉)

    编辑 回复
  2. Julian

    I think that everything said made a lot of sense.
    However, what about this? what if you were to
    create a awesome post title? I ain’t suggesting your content isn’t solid, but what if
    you added a title that makes people want more?
    I mean 【剧场版】吹响!上低音号~誓言的终章~ Hibike!
    Euphonium: Chikai no Finale | 幻之字幕组 is a little
    boring. You might look at Yahoo’s home page and watch
    how they create post headlines to grab people to open the
    links. You might try adding a video or a related picture or two to get readers excited about everything’ve got to say.
    Just my opinion, it would make your website a
    little bit more interesting.

    Also visit my blog: mobile legends hack app

    编辑 回复
Scroll Up