【剧场版】吹响!上低音号~誓言的终章~ Hibike! Euphonium: Chikai no Finale

影片简介

导演: 石原立也
编剧: 花田十辉 / 武田绫乃
主演: 黑泽朋世 / 朝井彩加 / 丰田萌绘 / 安济知佳 / 石谷春贵 / 藤村鼓乃美 / 山冈百合 / 津田健次郎 / 小堀幸 / 雨宫天 / 七濑彩夏 / 久野美咲 / 土屋神叶 / 寿美菜子 / 樱井孝宏
类型: 动画
官方网站: anime-eupho.com
制片国家/地区: 日本
语言: 日语
上映日期: 2019-04-19(日本)
片长: 102分钟
又名: 劇場版 響け!ユーフォニアム 完全新作 2年生になった久美子たち

制作人员

翻译&校对:逐风

时轴:TQYSY

后期:DFM

感谢贾总压制

更多

简体中文1080P WebRip

Nyaa Dmhy

繁体中文1080P WebRip

Nyaa Dmhy

如果速度不佳,可尝试添加tracker: https://tk.mabo.ltd/announce

关注

关注交流 新人招募

截图预览

MediaInfo

General
Format                                   : MPEG-4
Format profile                           : Base Media
Codec ID                                 : isom (isom/avc1)
File size                                : 1.95 GiB
Duration                                 : 1 h 40 min
Overall bit rate mode                    : Variable
Overall bit rate                         : 2 786 kb/s
Encoded date                             : UTC 2020-01-12 05:56:37
Tagged date                              : UTC 2020-01-12 08:36:38

Video
ID                                       : 1
Format                                   : AVC
Format/Info                              : Advanced Video Codec
Format profile                           : High@L5.1
Format settings                          : CABAC / 9 Ref Frames
Format settings, CABAC                   : Yes
Format settings, Reference frames        : 9 frames
Codec ID                                 : avc1
Codec ID/Info                            : Advanced Video Coding
Duration                                 : 1 h 40 min
Bit rate                                 : 2 655 kb/s
Maximum bit rate                         : 14.4 Mb/s
Width                                    : 1 918 pixels
Height                                   : 1 036 pixels
Display aspect ratio                     : 1.85:1
Frame rate mode                          : Variable
Frame rate                               : 24.000 FPS
Minimum frame rate                       : 23.810 FPS
Maximum frame rate                       : 24.390 FPS
Color space                              : YUV
Chroma subsampling                       : 4:2:0
Bit depth                                : 8 bits
Scan type                                : Progressive
Bits/(Pixel*Frame)                       : 0.056
Stream size                              : 1.86 GiB (95%)
Title                                    : avs.264#trackID=1@GPAC0.5.2-DEV-rev376-g5eeb74d-master
Encoded date                             : UTC 2020-01-12 05:56:37
Tagged date                              : UTC 2020-01-12 08:36:38
Codec configuration box                  : avcC

Audio
ID                                       : 2
Format                                   : AAC LC
Format/Info                              : Advanced Audio Codec Low Complexity
Codec ID                                 : mp4a-40-2
Duration                                 : 1 h 40 min
Bit rate mode                            : Variable
Bit rate                                 : 125 kb/s
Maximum bit rate                         : 200 kb/s
Channel(s)                               : 2 channels
Channel layout                           : L R
Sampling rate                            : 48.0 kHz
Frame rate                               : 46.875 FPS (1024 SPF)
Compression mode                         : Lossy
Stream size                              : 89.6 MiB (4%)
Language                                 : Japanese
Default                                  : Yes
Alternate group                          : 1
Tagged date                              : UTC 2020-01-12 08:36:38

海报

【剧场版】吹响!上低音号~誓言的终章~ Hibike! Euphonium: Chikai no Finale

发布于 2020年01月12日

评论


Scroll Up