【剧场版】龙珠超 布罗利

影片简介

导演: 长峰达也
编剧: 鸟山明
主演: 野泽雅子 / 堀川亮 / 中尾隆圣 / 岛田敏 / 古川登志夫 / 久川绫 / 山寺宏一 / 森田成一 / 水树奈奈 / 杉田智和 / 宝龟克寿
类型: 动作 / 动画 / 奇幻 / 冒险
官方网站: www.dbmovie-20th.com
制片国家/地区: 日本
语言: 日语
上映日期: 2019-05-24(中国大陆) / 2018-12-14(日本)
片长: 100分钟
又名: 龙珠超剧场版:布洛尼(港) / Dragon Ball Super: Broly / Dragon Ball Super: The Movie – Broly

制作人员

翻译: 大膜法使花泽かな 逐风 Exiakun

校对: 大膜法使花泽かな

时轴&后期: TQYSY

感谢贾总压制

更多

简体中文1080P WebRip

Nyaa

截图预览

MediaInfo

General
Complete name                            : 【幻之字幕组】剧场版 龙珠超 布罗利 Dragon Ball Super Broly GB 1080P WEB-DL AVC AAC.mp4
Format                                   : MPEG-4
Format profile                           : Base Media
Codec ID                                 : isom (isom/avc1)
File size                                : 2.86 GiB
Duration                                 : 1 h 40 min
Overall bit rate mode                    : Variable
Overall bit rate                         : 4 097 kb/s
Encoded date                             : UTC 2019-02-12 20:19:39
Tagged date                              : UTC 2019-02-12 20:19:39

Video
ID                                       : 1
Format                                   : AVC
Format/Info                              : Advanced Video Codec
Format profile                           : High@L5.1
Format settings                          : CABAC / 9 Ref Frames
Format settings, CABAC                   : Yes
Format settings, Reference frames        : 9 frames
Codec ID                                 : avc1
Codec ID/Info                            : Advanced Video Coding
Duration                                 : 1 h 40 min
Bit rate                                 : 3 829 kb/s
Maximum bit rate                         : 20.2 Mb/s
Width                                    : 1 920 pixels
Height                                   : 1 080 pixels
Display aspect ratio                     : 16:9
Frame rate mode                          : Constant
Frame rate                               : 23.976 (24000/1001) FPS
Color space                              : YUV
Chroma subsampling                       : 4:2:0
Bit depth                                : 8 bits
Scan type                                : Progressive
Bits/(Pixel*Frame)                       : 0.077
Stream size                              : 2.68 GiB (93%)
Title                                    : avs.264#trackID=1@GPAC0.5.2-DEV-rev376-g5eeb74d-master
Encoded date                             : UTC 2019-02-12 20:19:39
Tagged date                              : UTC 2019-02-12 20:20:14
Codec configuration box                  : avcC

Audio
ID                                       : 2
Format                                   : AAC LC
Format/Info                              : Advanced Audio Codec Low Complexity
Codec ID                                 : mp4a-40-2
Duration                                 : 1 h 40 min
Bit rate mode                            : Variable
Bit rate                                 : 265 kb/s
Maximum bit rate                         : 334 kb/s
Channel(s)                               : 2 channels
Channel layout                           : L R
Sampling rate                            : 48.0 kHz
Frame rate                               : 46.875 FPS (1024 SPF)
Compression mode                         : Lossy
Stream size                              : 189 MiB (6%)
Encoded date                             : UTC 2019-02-12 20:16:23
Tagged date                              : UTC 2019-02-12 20:20:14

海报

【剧场版】龙珠超 布罗利

发布于 2019年10月26日

评论


Scroll Up