【剧场版】在地下城寻求邂逅是否搞错了什么:俄里翁之箭

影片简介

导演: 樱美胜志
编剧: 大森藤野
主演: 松冈祯丞 / 水濑祈 / 坂本真绫 / 内田真礼 / 细谷佳正 / 早见沙织 / 齐藤壮马 / 茅野爱衣 / 大西沙织 / 木村珠莉 / 村川梨衣 / 高桥未奈美 / 田村睦心 / 乃村健次 / 冈本信彦 / 久保由利香 / 户松遥 / 桥本千波 / 石上静香 / 西明日香 / 洲崎绫 / 芳野由奈 / 日笠阳子 / 小柳良宽 / 土田大 / 赤尾光 / 贯井柚佳 / 榎木淳弥 / 柳田淳一 / 相马康一 / 赤崎千夏 / 井口裕香 / 叶山郁美 / 大川透 / 小松未可子 / 中田沙奈枝 / 拜真之介 / 坂泰斗 / 续木友子 / 樱庭有纱 / 石见舞菜香 / 安田陆矢
类型: 动画
官方网站: danmachi.com/movie/
制片国家/地区: 日本
语言: 日语
上映日期: 2019-02-15(日本)
片长: 82分钟
又名: 在地下城寻求邂逅是否搞错了什么-猎户座之箭-(台) / 在地下城寻求邂逅是否搞错了什么剧场版 / 期待在地下城邂逅有错吗 俄里翁之矢 / 俄里翁之箭

制作人员

翻译: 懒懒喔 彼方の歌 村人A AI 逐风

校对: 大膜法使花泽かな 逐风

时轴&后期: TQYSY

时轴: 知更 茶葉

后期: TQYSY DFM

感谢贾总压制

更多

简体中文1080P WebRip

Nyaa Dmhy

繁体中文1080P WebRip

Nyaa Dmhy

截图预览

MediaInfo

General
Complete name                            : Gekijouban.Danjon.Ni.Deai.O.Motomeru.No.Wa.Machigatteiru.Daro.Ka.Orion.No.Ya.2019.MOVIE.WebRip.1080p.CHS.AVC.AAC-Mabors.mp4
Format                                   : MPEG-4
Format profile                           : Base Media
Codec ID                                 : isom (isom/avc1)
File size                                : 1.87 GiB
Duration                                 : 1 h 23 min
Overall bit rate mode                    : Variable
Overall bit rate                         : 3 201 kb/s
Encoded date                             : UTC 2019-07-01 08:39:14
Tagged date                              : UTC 2019-07-01 08:39:14

Video
ID                                       : 1
Format                                   : AVC
Format/Info                              : Advanced Video Codec
Format profile                           : High@L5.1
Format settings                          : CABAC / 9 Ref Frames
Format settings, CABAC                   : Yes
Format settings, Reference frames        : 9 frames
Codec ID                                 : avc1
Codec ID/Info                            : Advanced Video Coding
Duration                                 : 1 h 23 min
Bit rate                                 : 3 071 kb/s
Maximum bit rate                         : 15.2 Mb/s
Width                                    : 1 920 pixels
Height                                   : 1 080 pixels
Display aspect ratio                     : 16:9
Frame rate mode                          : Constant
Frame rate                               : 23.976 (24000/1001) FPS
Color space                              : YUV
Chroma subsampling                       : 4:2:0
Bit depth                                : 8 bits
Scan type                                : Progressive
Bits/(Pixel*Frame)                       : 0.062
Stream size                              : 1.80 GiB (96%)
Encoded date                             : UTC 2019-07-01 08:39:14
Tagged date                              : UTC 2019-07-01 08:40:10
Codec configuration box                  : avcC

Audio
ID                                       : 2
Format                                   : AAC LC
Format/Info                              : Advanced Audio Codec Low Complexity
Codec ID                                 : mp4a-40-2
Duration                                 : 1 h 23 min
Bit rate mode                            : Variable
Bit rate                                 : 125 kb/s
Maximum bit rate                         : 133 kb/s
Channel(s)                               : 2 channels
Channel layout                           : L R
Sampling rate                            : 48.0 kHz
Frame rate                               : 46.875 FPS (1024 SPF)
Compression mode                         : Lossy
Stream size                              : 75.0 MiB (4%)
Language                                 : Japanese
Encoded date                             : UTC 2019-07-01 08:39:58
Tagged date                              : UTC 2019-07-01 08:40:10

海报

【剧场版】在地下城寻求邂逅是否搞错了什么:俄里翁之箭

发布于 2019年10月26日

评论


Scroll Up